Auti 2

DvdRip.Ac3-SveHR

General
Complete name                            : Auti.2.2011.DvdRip.Ac3-SveHR.avi
Format                                   : AVI
Format/Info                              : Audio Video Interleave
File size                                : 1.28 GiB
Duration                                 : 1h 41mn
Overall bit rate                         : 1 794 Kbps
Writing application                      : MEncoder 1.0rc2-4.2.4
Writing library                          : MPlayer

Video
ID                                       : 0
Format                                   : MPEG-4 Visual
Format profile                           : Simple@L1
Format settings, BVOP                    : No
Format settings, QPel                    : No
Format settings, GMC                     : No warppoints
Format settings, Matrix                  : Default (H.263)
Codec ID                                 : XVID
Codec ID/Hint                            : XviD
Duration                                 : 1h 41mn
Bit rate                                 : 1 405 Kbps
Width                                    : 720 pixels
Height                                   : 544 pixels
Display aspect ratio                     : 4:3
Frame rate                               : 25.000 fps
Color space                              : YUV
Chroma subsampling                       : 4:2:0
Bit depth                                : 8 bits
Scan type                                : Progressive
Compression mode                         : Lossy
Bits/(Pixel*Frame)                       : 0.143
Stream size                              : 1.00 GiB (78%)
Writing library                          : Lavc51.44.0

Audio
ID                                       : 1
Format                                   : AC-3
Format/Info                              : Audio Coding 3
Mode extension                           : CM (complete main)
Codec ID                                 : 2000
Duration                                 : 1h 41mn
Bit rate mode                            : Constant
Bit rate                                 : 384 Kbps
Channel(s)                               : 6 channels
Channel positions                        : Front: L C R, Side: L R, LFE
Sampling rate                            : 48.0 KHz
Bit depth                                : 16 bits
Compression mode                         : Lossy
Stream size                              : 280 MiB (21%)
Alignment                                : Split accross interleaves
Interleave, duration                     : 500 ms (12.50 video frames)
Interleave, preload duration             : 1000 ms

Downolad 

720p.Ac3-SveHR.mkv

General
Unique ID                                : 175187375089112570956423682264034273664 (0x83CBDC74BCC9285E914665C1DF156980)
Complete name                            : Auti.2.2011.720p.Ac3–SveHR.mkv
Format                                   : Matroska
Format version                           : Version 2
File size                                : 911 MiB
Duration                                 : 1h 47mn
Overall bit rate                         : 1 191 Kbps
Encoded date                             : UTC 2011-11-30 22:37:06
Writing application                      : mkvmerge v5.0.1 (‘Es ist Sommer’) built on Oct  9 2011 11:55:43
Writing library                          : libebml v1.2.2 + libmatroska v1.3.0

Video
ID                                       : 1
Format                                   : AVC
Format/Info                              : Advanced Video Codec
Format profile                           : High@L3.1
Format settings, CABAC                   : Yes
Format settings, ReFrames                : 3 frames
Muxing mode                              : Header stripping
Codec ID                                 : V_MPEG4/ISO/AVC
Duration                                 : 1h 47mn
Bit rate                                 : 873 Kbps
Width                                    : 1 280 pixels
Height                                   : 536 pixels
Display aspect ratio                     : 2.40:1
Frame rate                               : 23.976 fps
Color space                              : YUV
Chroma subsampling                       : 4:2:0
Bit depth                                : 8 bits
Scan type                                : Progressive
Bits/(Pixel*Frame)                       : 0.053
Stream size                              : 648 MiB (71%)
Title                                    : Auti.2.2011.720p.Ac3–SveHR
Writing library                          : x264 core 80 r1376M 3feaec2
Encoding settings                        : cabac=1 / ref=3 / deblock=1:-1:-1 / analyse=0x3:0x113 / me=hex / subme=7 / psy=1 / psy_rd=1.0:0.0 / mixed_ref=1 / me_range=16 / chroma_me=1 / trellis=1 / 8x8dct=1 / cqm=0 / deadzone=21,11 / fast_pskip=1 / chroma_qp_offset=-2 / threads=12 / sliced_threads=0 / nr=0 / decimate=1 / mbaff=0 / constrained_intra=0 / bframes=3 / b_pyramid=0 / b_adapt=1 / b_bias=0 / direct=1 / wpredb=1 / wpredp=2 / keyint=250 / keyint_min=25 / scenecut=40 / rc_lookahead=40 / rc=2pass / mbtree=1 / bitrate=873 / ratetol=1.0 / qcomp=0.60 / qpmin=10 / qpmax=51 / qpstep=4 / cplxblur=20.0 / qblur=0.5 / ip_ratio=1.40 / aq=1:1.00
Language                                 : Croatian

Audio
ID                                       : 2
Format                                   : AC-3
Format/Info                              : Audio Coding 3
Mode extension                           : CM (complete main)
Muxing mode                              : Header stripping
Codec ID                                 : A_AC3
Duration                                 : 1h 47mn
Bit rate mode                            : Constant
Bit rate                                 : 320 Kbps
Channel(s)                               : 6 channels
Channel positions                        : Front: L C R, Side: L R, LFE
Sampling rate                            : 48.0 KHz
Bit depth                                : 16 bits
Compression mode                         : Lossy
Delay relative to video                  : 23ms
Stream size                              : 245 MiB (27%)
Title                                    : Auti.2.2011.720p.Ac3–SveHR
Language                                 : Croatian

Downolad 

1080p.Ac3-SveHR.mkv

General
Unique ID                                : 249323954412566404341200116287393388577 (0xBB920C05F059D35CA06A34CD228E5821)
Complete name                            : Auti.2.2011.1080p.Ac3–SveHR.mkv
Format                                   : Matroska
Format version                           : Version 2
File size                                : 1.18 GiB
Duration                                 : 1h 46mn
Overall bit rate                         : 1 594 Kbps
Encoded date                             : UTC 2011-11-30 22:27:07
Writing application                      : mkvmerge v5.0.1 (‘Es ist Sommer’) built on Oct  9 2011 11:55:43
Writing library                          : libebml v1.2.2 + libmatroska v1.3.0

Video
ID                                       : 1
Format                                   : AVC
Format/Info                              : Advanced Video Codec
Format profile                           : High@L4.0
Format settings, CABAC                   : Yes
Format settings, ReFrames                : 3 frames
Muxing mode                              : Header stripping
Codec ID                                 : V_MPEG4/ISO/AVC
Duration                                 : 1h 46mn
Bit rate                                 : 1 274 Kbps
Width                                    : 1 920 pixels
Height                                   : 800 pixels
Display aspect ratio                     : 2.40:1
Frame rate                               : 23.976 fps
Color space                              : YUV
Chroma subsampling                       : 4:2:0
Bit depth                                : 8 bits
Scan type                                : Progressive
Bits/(Pixel*Frame)                       : 0.035
Stream size                              : 944 MiB (78%)
Title                                    : Auti.2.2011.1080p.Ac3–SveHR
Writing library                          : x264 core 80 r1376M 3feaec2
Encoding settings                        : cabac=1 / ref=3 / deblock=1:-1:-1 / analyse=0x3:0x113 / me=hex / subme=7 / psy=1 / psy_rd=1.0:0.0 / mixed_ref=1 / me_range=16 / chroma_me=1 / trellis=1 / 8x8dct=1 / cqm=0 / deadzone=21,11 / fast_pskip=1 / chroma_qp_offset=-2 / threads=12 / sliced_threads=0 / nr=0 / decimate=1 / mbaff=0 / constrained_intra=0 / bframes=3 / b_pyramid=0 / b_adapt=1 / b_bias=0 / direct=1 / wpredb=1 / wpredp=2 / keyint=250 / keyint_min=25 / scenecut=40 / rc_lookahead=40 / rc=2pass / mbtree=1 / bitrate=1274 / ratetol=1.0 / qcomp=0.60 / qpmin=10 / qpmax=51 / qpstep=4 / cplxblur=20.0 / qblur=0.5 / ip_ratio=1.40 / aq=1:1.00
Language                                 : Croatian

Audio
ID                                       : 2
Format                                   : AC-3
Format/Info                              : Audio Coding 3
Mode extension                           : CM (complete main)
Muxing mode                              : Header stripping
Codec ID                                 : A_AC3
Duration                                 : 1h 46mn
Bit rate mode                            : Constant
Bit rate                                 : 320 Kbps
Channel(s)                               : 6 channels
Channel positions                        : Front: L C R, Side: L R, LFE
Sampling rate                            : 48.0 KHz
Bit depth                                : 16 bits
Compression mode                         : Lossy
Delay relative to video                  : 23ms
Stream size                              : 243 MiB (20%)
Title                                    : Auti.2.2011.1080p.Ac3–SveHR
Language                                 : Croatian

Downolad 

~ autora/ice gogi dana 28. studenoga 2011..

73 Odgovora to “Auti 2”

  1. tooooooo…. hvalaaa!!!!!!!!!!!!

  2. Hvaaaalaaa!!!!! Svaka čast!!!!

  3. Big Tnx!!!!!!!

  4. jos jednom hvala.stvarno hvala.legendo.

  5. Ej čovječe, kako da ti zahvalimo na svemu ovome.Hvalaaaaa

  6. znao sam da ce biti 28.

  7. HVALA! OVO JE STVARNO BILO BRZO , OD KAD ZNAM ZA VAS U VIDEOTEKU NE ULAZIM !!!! ;-))))

  8. moze neki drugi link preko ovog ne mogu skinit crtic

  9. znao sam da će biti link, samo je trebalo biti malo strpljiv… hvala majstore

  10. hvala

  11. …sta da kazem ?hvala kao uvijek !!!

  12. OMG! HVALAAAAAAAAAAAAAAAAAAAAAAA!

  13. Svaka cast majstore! Hvala Velika!!!!!!!!

  14. Uz duboku zahvalnost na vrhunskom piratstvu :-)), kratko pitanjce nevezano izravno za ovaj film … da li je u planu film Koko i duhovi … djeca ga gledala u kinu i žele ga ponovo gledati? Hvala još jednom!

  15. toooo zmaju odličan si

  16. Da bit ce Koko i duhovi kad izade na dvd-u

  17. Gogi oprosti sto te gnjavim ali dali bi mogao jos jednom konvertirati strumpfove jer i 720p i 1080p sve kocka do kockice, a i malo je 1 gb – 1080p. Sorry ako trazim previse i hvala puno na svim crticima.

  18. LEGENDA O ČUVARIMA jel postoji sansa da to bude,molim te😉

  19. Hvala Care!!!

  20. Dosao je neki medvjedić Winnie.

  21. Mogu reći samo veliko HVALA!Mario

  22. kralju briljatna stranica!!!zahvalan do boga!!!keep up the good work😉

  23. HVALA U IME MOJE CETTVERO DJECE SVI SU SRETNI ZBOG OVIH SUPER CRTICA…Hvala Hvala

  24. Hvala za Koka i duhove, unaprijed!

  25. BRAVO,HVALAAAAAAAAAAAAAA!OD KADA ZNAM ZA VAS MOJI KLINCI SU PRESRETNI,A I MOJ KUĆNI PRORAČUN,JER NE VODIM IH U KINO🙂

  26. hvala GOGI, ja sam iz bosne, odskora sam saznao za ovaj VAS blog , HVALA STO SE TRUDITE , INTERESUJE ME kako nacai onaj vas prosli blog(posto je imao vise crtica postevljeni 2010 i 2009) i da li je moguce skidati crtice sa tog vaseg proslog bloga koji je hakerisan … hvala, vehid

  27. sve 5 gogi, ali zasto 4:3???Ja budem sebi to scropao, mogo bi i ti🙂

  28. da moguće je skidat crtiće za tog starog bloga

  29. ok, ti ANONIMNI kazes da je moguce skidati crtice sa starog bloga – al iskreno – radio sam NANOVO sistem na PC , a nisam ga ni zapamtio a ni zapisao, pa ako ste u mogucnosti da mi to napisete ovdje ili na vehid1976@live.com , HVALA unaprijed , vehid

  30. Na vrhu bloga imas Popis sinkroniziranih Crtića,tu su svi sa starog i novog bloga!

  31. gogi jel bi mogo nabavit onaj hr film iz 2010 "THE SHOW MUST GO ON"

  32. hoće li biti winx magična avantura ?hvala

  33. Gogi jesam li ti ja već dosadio sa ovim odgovaranjem umjesto tebe ili nisam reci mi iskerno ja se nimalo neć ljutiti jer bolje da kažeš nego da bude…

  34. Pozdrav svima. Gogi da li možda znaš da li crtani Polar Express ima sinhronizirani na hrvatski. Hvala na odgovoru

  35. Polar Express nema sinkronizacije!!

  36. Jel mi može neko popmoć sve skinem i pet, spržim idemo dledati i n eradi, zašto? zašto?Hvala munaprijed!

  37. Gogi,imaš li patka frku?bio bih ti zahvalan kada bi ga pronašao

  38. Gogi kad ce bit Mačak u čizmama 2011, onaj koji je sad u kinu,jel znas datum mozda kad ces ga postavit? Jer moja mala ga oce gledat vise puta, a mi nemozemo ici u kino cjelo vrijeme.Hvala puno unaprijed!!

  39. Super je crtač, i ja ga jedva čekam gledat u svom dvd playeru, i preuzat ga.Hvala ti Gogi, zbog tebe ima nade, zbog tebe zivim,zbog tebe ja se molim.Hvala,bas hvala puno, a jos srecniji biti cu gledajuci macka u cizmama u na svome compu i u mome dvd playeru, HVALA ISKRENO!! HVALA!!!pozdravi od Filipa, I moga sina Jaše.

  40. Daj postavi Mačka u čizmama,pliz. :3 thanks Gogi thanks.

  41. hej gogi hoće li bit pop pixie???moja sestra to jako želi

  42. Bok,Gogi!!Hvala ti za one tuljane!opet je mir u kući…🙂.Pokušavam skinuti Niko-božićna potraga,ali ne mogu ući na stranicu.Imaš li možda link za taj crtić??Hvala

  43. Zanemari ovaj komentar gore(za Niku)jer sam ga našla na popisu desno.Moj naklon..

  44. Antivirusni prg… mi neda kinut jdownloader koji drugi program koristiti?

  45. FileServe Manager.Evo link:http://108.61.4.243/download/fsm/FileServeManagerSetup.exe

  46. sve super samo malo krči zvuk na 5.1….isto tako i konferencija o životinjama…..

  47. Gogi, koji si ti "jadnik"! Mislim, unatoč svim tim filmovima i crtićima, i dalje ne razumijem kako se ljudima da čekati do 28.11.2011. kada na jednom forumu koji ja znam je stigao 20.11.2011.? Ipak, znam da ćeš obrisati ovaj komentar jer tebi je bitna reputacija… I da, dali imaš Niko Božićna potraga DVD-R?

  48. Anonomno ti nemaš pojma!Gogi se tu trudi i ima najbolju sunkro stranicu a ti ga jadnikom zoveš ti si samo ljubomoran jer je on orginalan!

  49. prijatelju imas li mozda Doktor Argus…to trazim a nigdje nemogu naci….

  50. Ne nazalost!

  51. postoji li mogućnost da objavite Winx magična avantura??hvala

  52. Hvala u svakom slučaju, ali definitivno moraš poraditi na kvalitetu ripova jer su očajni. Ne znam da li ti ripaš ili ne, ali recimo ovaj Auti dvdrip je katastrofa. I to nije usamljen slučaj, jer većinom moram kasnije skinuti negdje englesku verziju, pa onda ubacivati sinkro audio u taj snimak da bude koliko toliko gledljivo. Ako već ne znaš ripati, skini AutoGK i pusti ga da odradi posao za tebe.Pozdrav.

  53. sorry gogi sto te gnjavim skinio sam sva tri crtica i nece mi pokrenit crtic ni na jednom dvd playeru isprobo sam na 5 dvd playerima i nece neznam zasto na kompu super nema greske snimim na dvd i nece ga dvd pokrnit kao nepostoji film stavim tako i na usb isto sranje nepostoji crtic bio bih ti zahvalan ako bi mi nekako mogo pomoc!!HVALA!!

  54. Pokusaj pronac nadogradnje na netu za svoj Dvd player,ocito ne prepoznaje codece sa kojima je crtani napravljen!

  55. e GOGI hoce li biti crtic GORMITI molim te ??!!

  56. pozdrav gogi crtići su ti super kvaliteta odlična nemam problema niti sa jednim crtićem što sam skinije ali te molim da filmove posatavljaš u dvdripu zbog gledanja na dvd playeru ili postavi link za nekakav dobar converter kod kojeg se pri convertiranju ne gubi kvaliteta slike i zvuka

  57. gogi svaka cast… crtici su zakon..hvala na trudu .

  58. Pozdrav, Tražim onaj crtić sa sovama… Legenda o čuvarima, ima li toga?

  59. Mislim da nema legende o cuvarima na HRV

  60. Gogi, gdje su svi crtici od prije? Kako istrenirati zmaja…? Thnx!

  61. Bok.Ja sam jučer dobio dojavu o vašoj stranici,stvarno je zakon.Gdje se nalaze ostali crtići,problemi sa ACTA ili?hvala!!!!!

  62. Je problemi sa SOPA!

  63. ne mogu skidat crtiće…

  64. Misliš li da će problem biti uklonjen? Zahvaljujem

  65. Ne mogu nista skinuti preko FreeRapid Downloadera… :-(((((((….o zastoooo???…..moze kakvo objasnjenje? ….by Tuka…

  66. E gogi bi mi mogo nabavit DBZ(Dragon BAll Z) probo sam skinut preko fileserve ali pise da je invalid file or deleted

  67. HVALA TI. MOJE TROJE DJECE JE SRETNO

  68. gogi, sori sta te gnjavim, ali da li postoji nacin da ubrzam skidanje preko JDownloadera? Skida mi se uzasno sporo(2 dana 1 crtic)

  69. Ima li šanse da staviš roary-a ?!

  70. gogi, jel imas conana na hrvatskom, http://www.youtube.com/watch?v=R86IW2gt4Ww

  71. Gogi imam jedan problem. Skinuo sam Auti.2.2011.1080p.Ac3–SveHR.mkv ali kad idem otvoriti folder u koji sam ga stavio padne mi Windows Explorer. Znaš li možda u čemu je problem?Hvala ti unaprijed

  72. Pitanje vezano za ovaj film. Iz J dawnloadera mi ga više neda skinuti.Ima li neki drugi način koji radi i da je free?I još jedno pitanje vezano za Alpha i Omega nekada je taj film bio gore dali postoji mogućnost da ga se skine?

  73. E sada ne znam jeli bolja 1 ili 2 heheh …. Kožni mjenjači

Odgovori

Popunite niže tražene podatke ili kliknite na neku od ikona za prijavu:

WordPress.com Logo

Ovaj komentar pišete koristeći vaš WordPress.com račun. Odjava / Izmijeni )

Twitter picture

Ovaj komentar pišete koristeći vaš Twitter račun. Odjava / Izmijeni )

Facebook slika

Ovaj komentar pišete koristeći vaš Facebook račun. Odjava / Izmijeni )

Google+ photo

Ovaj komentar pišete koristeći vaš Google+ račun. Odjava / Izmijeni )

Spajanje na %s

 
%d bloggers like this: