Čimpanze u Svemiru

Cimpanze.U.Svemiru.2008.720p.BRip.avi

General
Complete name                            : Cimpanze.U.Svemiru.2008.720p.BRip.avi
Format                                   : AVI
Format/Info                              : Audio Video Interleave
File size                                : 841 MiB
Duration                                 : 1h 20mn
Overall bit rate                         : 1 460 Kbps
Writing application                      : MEncoder 1.0rc2-4.2.4
Writing library                          : MPlayer

Video
ID                                       : 0
Format                                   : MPEG-4 Visual
Format profile                           : Simple@L1
Format settings, BVOP                    : No
Format settings, QPel                    : No
Format settings, GMC                     : No warppoints
Format settings, Matrix                  : Default (H.263)
Codec ID                                 : XVID
Codec ID/Hint                            : XviD
Duration                                 : 1h 20mn
Bit rate                                 : 1 199 Kbps
Width                                    : 1 088 pixels
Height                                   : 464 pixels
Display aspect ratio                     : 2.35:1
Frame rate                               : 23.976 fps
Color space                              : YUV
Chroma subsampling                       : 4:2:0
Bit depth                                : 8 bits
Scan type                                : Progressive
Compression mode                         : Lossy
Bits/(Pixel*Frame)                       : 0.099
Stream size                              : 691 MiB (82%)
Writing library                          : Lavc51.44.0

Audio
ID                                       : 1
Format                                   : AC-3
Format/Info                              : Audio Coding 3
Mode extension                           : CM (complete main)
Codec ID                                 : 2000
Duration                                 : 1h 20mn
Bit rate mode                            : Constant
Bit rate                                 : 256 Kbps
Channel(s)                               : 6 channels
Channel positions                        : Front: L C R, Side: L R, LFE
Sampling rate                            : 48.0 KHz
Bit depth                                : 16 bits
Compression mode                         : Lossy
Stream size                              : 148 MiB (18%)
Alignment                                : Split accross interleaves
Interleave, duration                     : 500 ms (11.99 video frames)
Interleave, preload duration             : 1000 msLanguage                                 : Croatian

Downolad 

Cimpanze.U.Svemiru.2008.720p.BRip.mkv

General
Unique ID                                
Complete name                            : Cimpanze.U.Svemiru.2008.720p.BRip.mkv
Format                                   : Matroska
Format version                           : Version 2
File size                                : 1.26 GiB
Duration                                 : 1h 20mn
Overall bit rate                         : 2 236 Kbps
Encoded date                             : UTC 2011-01-12 13:27:13
Writing application                      : mkvmerge v4.1.1 (‘Bouncin’ Back’) built on Jul  3 2010 22:54:08
Writing library                          : libebml v1.0.0 + libmatroska v1.0.0

Video
ID                                       : 1
Format                                   : AVC
Format/Info                              : Advanced Video Codec
Format profile                           : Main@L3.1
Format settings, CABAC                   : Yes
Format settings, ReFrames                : 3 frames
Codec ID                                 : V_MPEG4/ISO/AVC
Duration                                 : 1h 20mn
Bit rate                                 : 1 978 Kbps
Width                                    : 1 280 pixels
Height                                   : 544 pixels
Display aspect ratio                     : 2.35:1
Frame rate                               : 23.976 fps
Color space                              : YUV
Chroma subsampling                       : 4:2:0
Bit depth                                : 8 bits
Scan type                                : Progressive
Bits/(Pixel*Frame)                       : 0.118
Stream size                              : 1.09 GiB (87%)
Writing library                          : x264 core 68 r1183M f21daff

Audio
ID                                       : 2
Format                                   : AC-3
Format/Info                              : Audio Coding 3
Mode extension                           : CM (complete main)
Codec ID                                 : A_AC3
Duration                                 : 1h 20mn
Bit rate mode                            : Constant
Bit rate                                 : 256 Kbps
Channel(s)                               : 6 channels
Channel positions                        : Front: L C R, Side: L R, LFE
Sampling rate                            : 48.0 KHz
Bit depth                                : 16 bits
Compression mode                         : Lossy
Stream size                              : 148 MiB (11%)
Language                                 : Croatian

Downolad 

Za Download koristite besplatni software JDownloader

~ autora/ice gogi dana 15. listopada 2011..

10 Odgovora to “Čimpanze u Svemiru”

  1. Hvala, Gogi! E jel imas Aute 2 ili Kung Fu Pandu 2?

  2. Gogi, skinula sam Štrumpfove film i sada bi ih htjela staviti na dvd. Kako da ga pretvorim u avi format? Da li se to uopće može?

  3. gogi jel imas strumfove? plizz odgovori

  4. Ovo ti je program za pretvaranje svih formata u avi.http://www.fileserve.com/file/EqJRvMb

  5. Super, obožavam crtane…!Ima li kakve šanse da uskoro možemo ovdje downloadati " Koko i duhovi" ?

  6. Hvala Gogi na pomoći i na ctićima.

  7. ja nemogu skinuti JDownloader..!! :/kako da skinem crtice??

  8. Iz kog razloga nemozes skinuti JDownloader??

  9. Skines Program koji konvertira sa avi ili bilo kojeg fila kao naprimjer xvid to dvd i kasnije ga zbrnujes na dvd http://www.freewarefiles.com/Freemake-Video-Converter_program_58281.html sa ovim programom mozes da konvertiras i da zbrnujes topli pozdrav…..

  10. kako se skidaaju crtići, preko linkova?

Odgovori

Popunite niže tražene podatke ili kliknite na neku od ikona za prijavu:

WordPress.com Logo

Ovaj komentar pišete koristeći vaš WordPress.com račun. Odjava / Izmijeni )

Twitter picture

Ovaj komentar pišete koristeći vaš Twitter račun. Odjava / Izmijeni )

Facebook slika

Ovaj komentar pišete koristeći vaš Facebook račun. Odjava / Izmijeni )

Google+ photo

Ovaj komentar pišete koristeći vaš Google+ račun. Odjava / Izmijeni )

Spajanje na %s

 
%d bloggers like this: