Kerempatak

General
Complete name                            : Kerempatak – 04.avi
Format                                   : AVI
Format/Info                              : Audio Video Interleave
File size                                : 60.1 MiB
Duration                                 : 7mn 16s
Overall bit rate                         : 1 155 Kbps
Writing application                      : VirtualDubMod 1.5.10.2 (build 2540/release)
Writing library                          : VirtualDubMod build 2540/release

Video
ID                                       : 0
Format                                   : MPEG-4 Visual
Format profile                           : Advanced Simple@L5
Format settings, BVOP                    : 2
Format settings, QPel                    : No
Format settings, GMC                     : No warppoints
Format settings, Matrix                  : Custom
Muxing mode                              : Packed bitstream
Codec ID                                 : XVID
Codec ID/Hint                            : XviD
Duration                                 : 7mn 16s
Bit rate                                 : 1 017 Kbps
Width                                    : 512 pixels
Height                                   : 384 pixels
Display aspect ratio                     : 4:3
Frame rate                               : 23.976 fps
Color space                              : YUV
Chroma subsampling                       : 4:2:0
Bit depth                                : 8 bits
Scan type                                : Progressive
Compression mode                         : Lossy
Bits/(Pixel*Frame)                       : 0.216
Stream size                              : 53.0 MiB (88%)
Writing library                          : XviD 1.0.3 (UTC 2004-12-20)

Audio
ID                                       : 1
Format                                   : MPEG Audio
Format version                           : Version 1
Format profile                           : Layer 3
Codec ID                                 : 55
Codec ID/Hint                            : MP3
Duration                                 : 7mn 16s
Bit rate mode                            : Constant
Bit rate                                 : 128 Kbps
Channel(s)                               : 2 channels
Sampling rate                            : 44.1 KHz
Compression mode                         : Lossy
Stream size                              : 6.66 MiB (11%)
Alignment                                : Split accross interleaves
Interleave, duration                     : 42 ms (1.00 video frame)
Interleave, preload duration             : 500 ms

1 Link Download 14 epizoda


Download-Svaka epizoda posebno:

Za Download koristite besplatni software JDownloader

~ autora/ice gogi dana 25. rujna 2011..

6 Odgovora to “Kerempatak”

  1. Ey..jel imaš možda crtić Musti ili bilo koji crtić koji se prikazuje na dječjoj tv? Hvala…

  2. Ne nazalost za sada nista

  3. Bok Gogi,stvarno si car,crtići su bomba,malena uživa,a i ja s njom. Nego na novoj adresi ne mogu skinuti nijedan crtić,za svaki link piše offline,ne znam u čemu je problem.

  4. SOPA je sve kriva,nista ne radi.Sa desne strane bloga je popis crtica koji rade!

  5. Kerempatak 3 nije moguće skinuti, Kerempatak 4 ima samo 256 bayta?!?

  6. Kerempatak 7 – nije dostupan!

Odgovori

Popunite niže tražene podatke ili kliknite na neku od ikona za prijavu:

WordPress.com Logo

Ovaj komentar pišete koristeći vaš WordPress.com račun. Odjava / Izmijeni )

Twitter picture

Ovaj komentar pišete koristeći vaš Twitter račun. Odjava / Izmijeni )

Facebook slika

Ovaj komentar pišete koristeći vaš Facebook račun. Odjava / Izmijeni )

Google+ photo

Ovaj komentar pišete koristeći vaš Google+ račun. Odjava / Izmijeni )

Spajanje na %s

 
%d bloggers like this: