Kraljević i prosjak TVRip

General
Complete name                    : Kraljevic i prosjak TVRip.avi
Format                           : AVI
Format/Info                      : Audio Video Interleave
File size                        : 566 MiB
Duration                         : 48mn 52s
Overall bit rate                 : 1 618 Kbps
Writing application              : VirtualDubMod 1.5.4.1 (build 2178/release)
Writing library                  : VirtualDub build 32842/release

Video
ID                               : 0
Format                           : MPEG-4 Visual
Format profile                   : Advanced Simple@L5
Format settings, BVOP            : 1
Format settings, QPel            : No
Format settings, GMC             : No warppoints
Format settings, Matrix          : Custom
Codec ID                         : XVID
Codec ID/Hint                    : XviD
Duration                         : 48mn 52s
Bit rate                         : 1 416 Kbps
Width                            : 688 pixels
Height                           : 512 pixels
Display aspect ratio             : 4:3
Frame rate                       : 25.000 fps
Color space                      : YUV
Chroma subsampling               : 4:2:0
Bit depth                        : 8 bits
Scan type                        : Progressive
Compression mode                 : Lossy
Bits/(Pixel*Frame)               : 0.161
Stream size                      : 495 MiB (88%)
Writing library                  : XviD 1.2.1 (UTC 2008-12-04)

Audio
ID                               : 1
Format                           : MPEG Audio
Format version                   : Version 1
Format profile                   : Layer 3
Mode                             : Joint stereo
Codec ID                         : 55
Codec ID/Hint                    : MP3
Duration                         : 48mn 52s
Bit rate mode                    : Constant
Bit rate                         : 192 Kbps
Channel(s)                       : 2 channels
Sampling rate                    : 48.0 KHz
Compression mode                 : Lossy
Stream size                      : 67.1 MiB (12%)
Alignment                        : Aligned on interleaves
Interleave, duration             : 40 ms (1.00 video frame)
Interleave, preload duration     : 504 ms
Writing library                  : LAME3.98r
Encoding settings                : -m j -V 4 -q 2 -lowpass 18.6 -b 192

Downolad 

http://www.filefactory.com/file/cd45c1d/n/

Za Download koristite besplatni software JDownloader

~ autora/ice gogi dana 28. kolovoza 2011..

20 Odgovora to “Kraljević i prosjak TVRip”

  1. gogi ovo nisam ja napisao ali sam našao da je netko objavio na ben hur.vidim da mu treba crtić a mislim da ga možda tam nisi pročito pa evo:Lijep Pozdrav Gogi!!!Kao prvo svaka TI čast majstore – zakon si! Cure se ne odvajaju od tv-a kad dođu ujaku. Međutim, imam jednu molbu: ako kojim slučajem imaš makar i jedan crtić od MAJSTOR FANTAĆA (eng. Mr. Bogus)da ga postaviš za down. Tražim ga već cijelu vječnost, ali sam našao samo nešto flash-a, u biti, na engleskom. Koliko se sjećam bio je prije 15-20g na HTV-u sinkroniziran. Ukoliko ga netko ima od prisutnih, neka se javi.Unaprijed zahvalan

  2. Prije svega, zahvaljujem se na svim crticima!Da li ima sanse da objavis i Disney-evog Robin Hood-a iz 1973?Pozdrav iz Splita!

  3. gogi može link za the show must go on naš film!kažem naš jer ima i engleski ali ja oču hrvatski

  4. gogi ima šanse za autići 3?znači autići ne auti.PS:i 3 je sinkro bio sem negdje vidio ali nije bilo za skinut pa eto pitam tu a tu je i bolja kvaliteta 100%

  5. e jel ima bilo kakve šanse za asterixa i obelixa crtać naravno ima njih puno pa barem neke ako sve nemože onda neke

  6. Administrator je uklonio komentar.

  7. Sorry jEXAMPLE na obrisanom komentaru,postavi link ponovo!!

  8. Mislim da Disney-evog Robin Hood-a iz 1973 ce bit jako tesko pronac!!Ak neko slucajno ima nek postavi link

  9. Poradit cu na asterixu i obelixu

  10. Ma ok nemaš beda a blog je svejedno izbrisan jer autori nisu imali više love za podržavat blog

  11. Sorry sad tebi gogi blog je ipak u punoj funkciji evo linka:http://2kokice.com/

  12. Veliki pozdrav Gogiju, ima li šanse za crtić Legenda o sovama

  13. budemo se potrudili

  14. ajde gogi stavi nove crtane

  15. yes!ovo smo skinili šta oćemo

  16. kada ćete staviti auti 2 sinkronizirano?? unaprijed hvala

  17. moze li zeljezni djecak i iron man-ne znam je li crtic ili film?! zeljezni djecak je bitniji, pa ako ikako moze bilo bi ludilo!!unaprijed hvala!!

  18. Gogi, pozdrav!Uh kako mi je drago da sam te našao, već sam se preplašio da smo te skroz izgubili!Hvala ti za sve crtiće koje si nam dao i samo nastavi dalje!!!!Tata Igor

  19. anonimno željeznog dječaka imaš već ovdje a iron man je film!

  20. Gogi, sve OK?Predugo te nema s crticima…

Odgovori

Popunite niže tražene podatke ili kliknite na neku od ikona za prijavu:

WordPress.com Logo

Ovaj komentar pišete koristeći vaš WordPress.com račun. Odjava / Izmijeni )

Twitter picture

Ovaj komentar pišete koristeći vaš Twitter račun. Odjava / Izmijeni )

Facebook slika

Ovaj komentar pišete koristeći vaš Facebook račun. Odjava / Izmijeni )

Google+ photo

Ovaj komentar pišete koristeći vaš Google+ račun. Odjava / Izmijeni )

Spajanje na %s

 
%d bloggers like this: