Čudesna povijest ružnog pačeta

General
Complete name                    : Cudesna povijest ruznog paceta.avi
Format                           : AVI
Format/Info                      : Audio Video Interleave
File size                        : 699 MiB
Duration                         : 1h 13mn
Overall bit rate                 : 1 338 Kbps
Writing application              : VirtualDubMod 1.5.4.1 (build 2178/release)
Writing library                  : VirtualDubMod build 2178/release

Video
ID                               : 0
Format                           : MPEG-4 Visual
Format profile                   : Advanced Simple@L5
Format settings, BVOP            : 1
Format settings, QPel            : No
Format settings, GMC             : No warppoints
Format settings, Matrix          : Custom
Codec ID                         : XVID
Codec ID/Hint                    : XviD
Duration                         : 1h 13mn
Bit rate                         : 1 203 Kbps
Width                            : 640 pixels
Height                           : 480 pixels
Display aspect ratio             : 4:3
Frame rate                       : 25.000 fps
Color space                      : YUV
Chroma subsampling               : 4:2:0
Bit depth                        : 8 bits
Scan type                        : Progressive
Compression mode                 : Lossy
Bits/(Pixel*Frame)               : 0.157
Stream size                      : 628 MiB (90%)
Writing library                  : XviD 1.2.1 (UTC 2008-12-04)

Audio
ID                               : 1
Format                           : MPEG Audio
Format version                   : Version 1
Format profile                   : Layer 3
Mode                             : Joint stereo
Mode extension                   : MS Stereo
Codec ID                         : 55
Codec ID/Hint                    : MP3
Duration                         : 1h 13mn
Bit rate mode                    : Constant
Bit rate                         : 128 Kbps
Channel(s)                       : 2 channels
Sampling rate                    : 48.0 KHz
Compression mode                 : Lossy
Stream size                      : 66.9 MiB (10%)
Alignment                        : Aligned on interleaves
Interleave, duration             : 80 ms (2.00 video frames)
Interleave, preload duration     : 504 ms
Writing library                  : LAME3.98r
Encoding settings                : -m j -V 4 -q 2 -lowpass 17 -b 128

Downolad 

http://www.filefactory.com/file/cd45c09/n/

Za Download koristite besplatni software JDownloader

~ autora/ice gogi dana 28. kolovoza 2011..

8 Odgovora to “Čudesna povijest ružnog pačeta”

  1. Super crtić

  2. Molim za pomoć, intalirala sam jdownloader i ful je sporo to skidanje, filmove mi inače preko torrenta skida za max 1 h. Nikako da se spoji pa krene, pa pita kod, pa stane, pa opet krene ispočetka i tako u nedogled…zašto je to tako:(?thanks

  3. Kako da postavim da mi automatski nastavi prekinuti download a ne da krene sve ispočetka…hvala puno

  4. Ljudi skidajte direktno, nije veliki problem ^_^

  5. Gogi molila bih Bumbu🙂

  6. Preko JDownloadera dobijam poruku:"This file is only available to premium members"?!?

  7. Odgovor je na vrhu posta!

  8. Jel ima šanse uskoro za Ben 10? Imam samo sa starog bloga 1. sezonu i to se vrti od jutra do sutra… hvala

Odgovori

Popunite niže tražene podatke ili kliknite na neku od ikona za prijavu:

WordPress.com Logo

Ovaj komentar pišete koristeći vaš WordPress.com račun. Odjava / Izmijeni )

Twitter picture

Ovaj komentar pišete koristeći vaš Twitter račun. Odjava / Izmijeni )

Facebook slika

Ovaj komentar pišete koristeći vaš Facebook račun. Odjava / Izmijeni )

Google+ photo

Ovaj komentar pišete koristeći vaš Google+ račun. Odjava / Izmijeni )

Spajanje na %s

 
%d bloggers like this: