Vrlo zapetljana prića

General
Complete name                    : Vrlo zapetljana prica.avi
Format                           : AVI
Format/Info                      : Audio Video Interleave
File size                        : 699 MiB
Duration                         : 1h 36mn
Overall bit rate                 : 1 015 Kbps
Writing application              : FairUse Wizard – http://fairusewizard.com
Writing library                  : The best and REALLY easy backup tool

Video
ID                               : 0
Format                           : MPEG-4 Visual
Format profile                   : Advanced Simple@L5
Format settings, BVOP            : 1
Format settings, QPel            : No
Format settings, GMC             : No warppoints
Format settings, Matrix          : Default (MPEG)
Muxing mode                      : Packed bitstream
Codec ID                         : XVID
Codec ID/Hint                    : XviD
Duration                         : 1h 36mn
Bit rate                         : 878 Kbps
Width                            : 640 pixels
Height                           : 352 pixels
Display aspect ratio             : 16:9
Frame rate                       : 25.000 fps
Color space                      : YUV
Chroma subsampling               : 4:2:0
Bit depth                        : 8 bits
Scan type                        : Progressive
Compression mode                 : Lossy
Bits/(Pixel*Frame)               : 0.156
Stream size                      : 604 MiB (86%)
Writing library                  : XviD 1.2.1 (UTC 2008-12-04)

Audio
ID                               : 1
Format                           : MPEG Audio
Format version                   : Version 1
Format profile                   : Layer 3
Mode                             : Joint stereo
Codec ID                         : 55
Codec ID/Hint                    : MP3
Duration                         : 1h 36mn
Bit rate mode                    : Constant
Bit rate                         : 128 Kbps
Channel(s)                       : 2 channels
Sampling rate                    : 48.0 KHz
Compression mode                 : Lossy
Stream size                      : 88.1 MiB (13%)
Alignment                        : Aligned on interleaves
Interleave, duration             : 40 ms (1.00 video frame)
Interleave, preload duration     : 504 ms
Writing library                  : LAME3.97
Encoding settings                : -m j -V 4 -q 2 -lowpass 17 -b 128

FS 1 Link:
http://www.fileserve.com/file/AYp5KUP

Za Download koristite besplatni software JDownloader

~ autora/ice gogi dana 10. srpnja 2011..

Odgovori

Popunite niže tražene podatke ili kliknite na neku od ikona za prijavu:

WordPress.com Logo

Ovaj komentar pišete koristeći vaš WordPress.com račun. Odjava / Izmijeni )

Twitter picture

Ovaj komentar pišete koristeći vaš Twitter račun. Odjava / Izmijeni )

Facebook slika

Ovaj komentar pišete koristeći vaš Facebook račun. Odjava / Izmijeni )

Google+ photo

Ovaj komentar pišete koristeći vaš Google+ račun. Odjava / Izmijeni )

Spajanje na %s

 
%d bloggers like this: